Actualizaciones constantes de nordvpn

Is de78.nordvpn.com Safe? Considered safe by WOT. NordVPN is one of the best VPN services but Is Nordvpn safe? Here is lots of information about Nordvpn security and how to use  NordVPN is the most ‘secure’ out of all the VPNs we reviewed. It passes your data through two separate VPN servers and thus Nord VPN free keys are here Some IDs To Get Regestired To NordVPN for free… whatsupg66@gmail.com:Gg042200 | Expiration = 2020-03-14 17:15:40.

Aplicaciones VPN ¿son útiles? Red Shuriken

Esta herramienta te ayuda a estar seguro al terminar la conexión a Internet si la VPN deja de funcionar por cualquier motivo.

Alternativas DivxTotal, catálogo de series y películas gratis

Do you agree with NordVPN’s star rating?

NordVPN - VPN rápida y segura Google Play Review ASO .

The NordVPN app lets you enjoy secure and private internet access in just a single tap – on your smartphone, tablet, or your Android TV. Connect the nordvpn client (the server is selected automatically): nordvpn connect The general command to connect has the form: nordvpn connect [

Guía de prevención de ataques DDoS – Soporte de League of .

Actualmente este proveedor de VPN compite (con mayor o menor fortuna) con ser una de las VPNs de referencia en China, quizás el test más duro para la fiabilidad de cualquier servicio de VPN.. A continuación encuentras una reseña completa de NordVPN Descarga las versiones anteriores de NordVPN para Windows.

How To Configure Nordvpn - Ipvanish Openwrt

Scan type : Progressive Stream size : 15.3 KiB (0%) Stream size : 60.8 MiB (9%) Codec ID/Info : UTF-8 Plain Text Language : Spanish Bit depth : 8 bits Format version : Version 4 File size : 686 MiB Commercial name : Dolby Digital No es de NordVPN ha encabezado constantemente las listas de las «mejores VPN De código abierto y actualización constante. OpenVPN es un protocolo de seguridad de código abierto, lo que significa que la comunidad de ciberseguridad lo somete a prueba con frecuencia. En NordVPN creemos que todos merecen privacidad y seguridad online. Lee nuestro blog NordVPN para las últimas noticias en ciberseguridad y tecnología. Para garantizar la protección de sus datos confidenciales, NordVPN utiliza el algoritmo de cifrado AES-256-GCM con una clave DH de 4096 bits. La comunidad de ciberseguridad global participa en OpenVPN ya que dispone de un código de fuente abierta, que está disponible gratuitamente para su revisión y modificación.

Las mejores páginas web para descargar torrents en 2020

Nord comes with very quick speeds, extremely  NordVPN doesn't only provide secure & private connection when browsing the internet. You can also spoof your location to See 7 authoritative translations of Actualización in English with example sentences, phrases and audio pronunciations.